Les.Maries.De.L.An.Deux.1971.FRENCH.720p.BluRay.x264-FiDELiO URL Raccourcie

Les.Maries.De.L.An.Deux.1971.FRENCH.720p.BluRay.x264-FiDELiO




Réalisateur : Jean-Paul Rappeneau
Acteur(s) : Jean-Paul Belmondo, Marlène Jobert, Laura Antonelli
Durée : 98 minutes
Date de sortie : 1971-04-24

Description :

Nicolas Philibert, un français exilé en Amérique, s'enrichit et s'apprête à épouser une riche héritière. Avant cela, il doit divorcer de sa femme Charlotte qu'il part retrouver en France. Toutefois, pendant son absence la Révolution a fait rage et à son arrivée à Nantes, Philibert a bien du mal à remettre la main sur Charlotte, étroitement liée à une famille de royalistes.


Genre: Comédie dramatique
Qualité: Bluray 720p
Format: MKV
Origine : Les.Maries.De.L.An.Deux.1971.FRENCH.720p.BluRay.x264-FiDELiO
Codec vidéo : AVC/H264
Codec audio : DTS
Type : 2D (Standard)
Langue(s): VFI
Sous-Titre(s) :
Nombre de Fichiers: 1
Taille de l'upload: 4,37 Go



↓↓↓ Les.Maries.De.L.An.Deux.1971.FRENCH.720p.BluRay.x264-FiDELiO ↓↓↓
 
Seeders 10 Leechers 1 Téléchargements 10
 
Télécharger Dire merci! Signaler
Voir la liste des membres qui vous remercient
↑↑↑ Les.Maries.De.L.An.Deux.1971.FRENCH.720p.BluRay.x264-FiDELiO ↑↑↑

Informations

Nom Les.Maries.De.L.An.Deux.1971.FRENCH.720p.BluRay.x264-FiDELiO
Torrent Les.Maries.De.L.An.Deux.1971.FRENCH.720p.BluRay.x264-FiDELiO.torrent
Catégorie Film
Taille totale 4.37 GB
Info Hash 2b00fcb13917485bbbeaf746f22ae2c430c0b992
Uploadé par kaypa
Uploadé le 2017-06-18 13:11:24 (+00:00)
Visites 20
évaluation 0/5 (0 votes)

Liste des Fichiers

Path Size
Les.Maries.De.L.An.Deux.1971.FRENCH.720p.BluRay.x264-FiDELiO.mkv 4.37 GB

Voir le NFO

█▀▀▀▀ ▀▀█ █▀▀ █   ▀ █▀▀▀█
█▀▀ █   █ █   █   █ █   █
█   █ ▄▄█ █▄▄ █▄▄ █ █▄▄▄█
█▄▄▄▄▄▄▄▄▄▄▄▄▄▄▄▄▄▄▄▄▄▄▄▄▄▄▄▄▄▄▄▄▄▄▄▄▄▄▄▄▄▄▄▄▄▄▄▄▄▄▄▄▄▄▄▄▄▄▄▄▄▄▄▄▄▄▄▄▄▄▄▄▄▄▄▄▄▄
                                                                              █
         Les.Maries.De.L.An.Deux.1971.FRENCH.720p.BluRay.x264-FiDELiO         █
                                                                              █
                                                                              █
Title ─────── Les mariés de l'an deux                                         █
Size ──────── 4.4 GiB ─ 01:38:36                                              █
Video ─────── x264 @ 4837 Kbps ─ 1200x720 ─ 24 fps                            █
Audio ─────── French DTS 2.0 @ 1509 Kbps                                      █
Subs ──────── French (forced, SDH)                                            █
                                                                              █
▄▄▄▄▄▄▄▄▄▄▄▄▄▄▄▄▄▄▄▄▄▄▄▄▄▄▄▄▄▄▄▄▄▄▄▄▄▄▄▄▄▄▄▄▄▄▄▄▄▄▄▄▄▄▄▄▄▄▄▄▄▄▄▄▄▄▄▄▄▄▄▄▄▄▄▄▄▄█

Mediainfo :

General
Complete name                            : Les.Maries.De.L.An.Deux.1971.FRENCH.720p.BluRay.x264-FiDELiO.mkv
Format                                   : Matroska
Format version                           : Version 4 / Version 2
File size                                : 4.37 GiB
Duration                                 : 1h 38mn
Overall bit rate                         : 6 349 Kbps
Encoded date                             : UTC 2010-02-22 21:41:29
Writing application                      : no_variable_data
Writing library                          : Lavf57.56.100

Video
ID                                       : 1
Format                                   : AVC
Format/Info                              : Advanced Video Codec
Format profile                           : [email protected]
Format settings, CABAC                   : Yes
Format settings, ReFrames                : 9 frames
Codec ID                                 : V_MPEG4/ISO/AVC
Duration                                 : 1h 38mn
Bit rate                                 : 4 837 Kbps
Width                                    : 1 200 pixels
Height                                   : 720 pixels
Display aspect ratio                     : 1.667
Frame rate mode                          : Constant
Frame rate                               : 24.000 fps
Color space                              : YUV
Chroma subsampling                       : 4:2:0
Bit depth                                : 8 bits
Scan type                                : Progressive
Bits/(Pixel*Frame)                       : 0.233
Stream size                              : 3.25 GiB (74%)
Writing library                          : x264 core 148 r2762 90a61ec
Encoding settings                        : cabac=1 / ref=9 / deblock=1:0:0 / analyse=0x3:0x133 / me=umh / subme=10 / psy=1 / psy_rd=1.00:0.00 / mixed_ref=1 / me_range=24 / chroma_me=1 / trellis=2 / 8x8dct=1 / cqm=0 / deadzone=21,11 / fast_pskip=1 / chroma_qp_offset=-2 / threads=18 / lookahead_threads=3 / sliced_threads=0 / nr=0 / decimate=1 / interlaced=0 / bluray_compat=0 / constrained_intra=0 / bframes=8 / b_pyramid=2 / b_adapt=2 / b_bias=0 / direct=3 / weightb=1 / open_gop=0 / weightp=2 / keyint=250 / keyint_min=24 / scenecut=40 / intra_refresh=0 / rc_lookahead=60 / rc=2pass / mbtree=1 / bitrate=4837 / ratetol=1.0 / qcomp=0.60 / qpmin=0 / qpmax=69 / qpstep=4 / cplxblur=20.0 / qblur=0.5 / ip_ratio=1.40 / aq=1:1.00
Default                                  : Yes
Forced                                   : No
DURATION                                 : 01:38:36.625000000
NUMBER_OF_FRAMES                         : 141999
NUMBER_OF_BYTES                          : 3577759660
_STATISTICS_WRITING_APP                  : no_variable_data
_STATISTICS_WRITING_DATE_UTC             : 1970-01-01 00:00:00
_STATISTICS_TAGS                         : BPS DURATION NUMBER_OF_FRAMES NUMBER_OF_BYTES

Audio
ID                                       : 2
Format                                   : DTS
Format/Info                              : Digital Theater Systems
Mode                                     : 16
Format settings, Endianness              : Big
Codec ID                                 : A_DTS
Duration                                 : 1h 38mn
Bit rate mode                            : Constant
Bit rate                                 : 1 509 Kbps
Channel(s)                               : 2 channels
Channel positions                        : Front: L R
Sampling rate                            : 48.0 KHz
Bit depth                                : 24 bits
Compression mode                         : Lossy
Stream size                              : 1.04 GiB (24%)
Title                                    : French audio
Language                                 : French
Default                                  : Yes
Forced                                   : No
DURATION                                 : 01:38:36.630000000
NUMBER_OF_FRAMES                         : 554684
NUMBER_OF_BYTES                          : 1116024208
_STATISTICS_WRITING_APP                  : no_variable_data
_STATISTICS_WRITING_DATE_UTC             : 1970-01-01 00:00:00
_STATISTICS_TAGS                         : BPS DURATION NUMBER_OF_FRAMES NUMBER_OF_BYTES

Text #1
ID                                       : 3
Format                                   : UTF-8
Codec ID                                 : S_TEXT/UTF8
Codec ID/Info                            : UTF-8 Plain Text
Title                                    : Forced French subtitles
Language                                 : French
Default                                  : Yes
Forced                                   : No
DURATION                                 : 00:04:04.917000000
NUMBER_OF_FRAMES                         : 36
NUMBER_OF_BYTES                          : 1010
_STATISTICS_WRITING_APP                  : no_variable_data
_STATISTICS_WRITING_DATE_UTC             : 1970-01-01 00:00:00
_STATISTICS_TAGS                         : BPS DURATION NUMBER_OF_FRAMES NUMBER_OF_BYTES

Text #2
ID                                       : 4
Format                                   : UTF-8
Codec ID                                 : S_TEXT/UTF8
Codec ID/Info                            : UTF-8 Plain Text
Title                                    : French SDH
Language                                 : French
Default                                  : No
Forced                                   : No
DURATION                                 : 01:38:26.332000000
NUMBER_OF_FRAMES                         : 1203
NUMBER_OF_BYTES                          : 37619
_STATISTICS_WRITING_APP                  : no_variable_data
_STATISTICS_WRITING_DATE_UTC             : 1970-01-01 00:00:00
_STATISTICS_TAGS                         : BPS DURATION NUMBER_OF_FRAMES NUMBER_OF_BYTES

Menu
00:00:00.000                             : en:00:00:00.000
00:12:37.833                             : en:00:12:37.833
00:17:30.125                             : en:00:17:30.125
00:33:49.125                             : en:00:33:49.125
00:52:13.750                             : en:00:52:13.750
00:59:28.208                             : en:00:59:28.208
01:06:57.792                             : en:01:06:57.792
01:11:25.000                             : en:01:11:25.000
01:18:29.625                             : en:01:18:29.625
01:26:59.667                             : en:01:26:59.667
01:32:09.458                             : en:01:32:09.458
01:36:11.917                             : en:01:36:11.917

Ajouter un commentaire

Loading...